osu file format v14

[General]
AudioFilename: drugs are bad.mp3
AudioLeadIn: 2000
PreviewTime: 23857
Countdown: 0
SampleSet: Normal
StackLeniency: 0.6
Mode: 0
LetterboxInBreaks: 0
WidescreenStoryboard: 0

[Editor]
Bookmarks: 25249,140845
DistanceSpacing: 1.5
BeatDivisor: 4
GridSize: 4
TimelineZoom: 1.5

[Metadata]
Title:Injection
TitleUnicode:Injection
Artist:Rise Against
ArtistUnicode:Rise Against
Creator:pishifat
Version:Yauxo's Insane
Source:
Tags:the sufferer & and witness metal punk okoratu yauxo
BeatmapID:561116
BeatmapSetID:214092

[Difficulty]
HPDrainRate:6
CircleSize:4
OverallDifficulty:7
ApproachRate:9
SliderMultiplier:1.6
SliderTickRate:1

[Events]
//Background and Video events
0,0,"doggy.jpg",0,0
//Break Periods
2,83460,91155
//Storyboard Layer 0 (Background)
//Storyboard Layer 1 (Fail)
//Storyboard Layer 2 (Pass)
//Storyboard Layer 3 (Foreground)
//Storyboard Sound Samples

[TimingPoints]
0,285.714285714286,4,3,1,35,1,0
1000,-100,4,1,1,50,0,0
22714,-100,4,1,1,45,0,0
46714,-90.9090909090909,4,1,1,55,0,1
55142,-90.9090909090909,4,1,1,55,0,0
55857,-90.9090909090909,4,1,1,55,0,1
65142,571.428571428571,4,1,1,40,1,0
66284,552.995391705069,4,1,1,40,1,1
67389,558.139534883721,4,1,1,40,1,0
67389,-62.5,4,1,1,41,0,0
68505,550.45871559633,4,1,1,40,1,1
68505,-62.5,4,1,1,41,0,0
69055,555.555555555556,4,1,1,40,1,1
69055,-62.5,4,1,1,40,0,1
69610,545.454545454546,4,1,1,40,1,0
70155,566.037735849057,4,1,1,40,1,1
70721,558.139534883721,4,1,1,40,1,1
71837,552.359033371692,4,1,1,40,1,0
71837,-62.5,4,1,1,41,0,0
74598,563.380281690141,4,1,1,40,1,1
75161,545.454545454546,4,1,1,40,1,1
75706,552.995391705069,4,1,1,40,1,1
76258,551.724137931035,4,1,1,40,1,0
76258,-62.5,4,1,1,41,0,0
77913,560.747663551402,4,1,1,40,1,1
77913,-62.5,4,1,1,41,0,1
78473,566.037735849057,4,1,1,40,1,0
79039,550.45871559633,4,1,1,40,1,1
79589,555.555555555556,4,1,1,40,1,1
80700,550.45871559633,4,1,1,40,1,0
80700,-62.5,4,1,1,41,0,0
82902,558.139534883721,4,3,2,50,1,0
83460,552.995391705069,4,3,2,50,1,1
84012,558.139534883721,4,3,2,50,1,1
85128,555.555555555556,4,3,2,50,1,0
86794,560.747663551402,4,3,2,50,1,1
87354,553.76095985233,4,3,2,50,1,0
91784,547.945205479452,4,3,2,50,1,0
91784,-55.5555555555556,4,3,2,51,0,0
92331,558.139534883721,4,3,2,50,1,1
92331,-55.5555555555556,4,3,2,51,0,1
92889,554.016620498615,4,3,2,50,1,1
92889,-55.5555555555556,4,3,2,51,0,0
93997,554.016620498615,4,3,2,50,1,0
93997,-55.5555555555556,4,3,2,50,0,0
96213,550.45871559633,4,3,2,50,1,0
96213,-55.5555555555556,4,3,2,51,0,0
98414,556.844547563805,4,3,2,50,1,0
98414,-55.5555555555556,4,3,2,51,0,0
100641,281.030444964871,4,1,1,45,1,0
101765,285.714285714286,4,1,1,45,1,0
105050,-90.9090909090909,4,1,1,55,0,1
113479,-90.9090909090909,4,1,1,55,0,0
114193,-90.9090909090909,4,1,1,55,0,1
123336,-100,4,1,1,50,0,0
132479,-100,4,1,1,45,0,0
142907,-100,4,1,1,35,0,0
144050,-100,4,1,1,25,0,0
145193,-100,4,1,1,15,0,0
146336,-100,4,2,1,5,0,0

[Colours]
Combo1 : 135,61,92
Combo2 : 93,93,93

[HitObjects]
65,217,0,5,2,3:0:0:0:
61,248,285,1,2,3:0:0:0:
57,280,571,1,2,0:3:0:0:
56,316,857,1,8,2:1:0:0:
56,316,1000,6,0,B|164:328|164:328|224:312,1,160,4|0,0:0|0:0,0:0:0:0:
287,290,1428,2,0,B|281:262|259:243|234:239,1,80,8|0,0:0|0:0,0:0:0:0:
205,163,1714,2,0,B|169:171|147:206|154:240,1,80,0|0,0:0|0:0,0:0:0:0:
288,178,2000,2,0,L|297:75,1,80,8|0,0:0|0:0,0:0:0:0:
338,31,2285,5,0,0:0:0:0:
338,31,2428,1,0,0:0:0:0:
408,148,2571,2,0,L|417:251,1,80,8|0,0:0|0:0,0:0:0:0:
373,296,2857,1,0,0:0:0:0:
373,296,3000,1,0,0:0:0:0:
492,260,3142,1,8,0:0:0:0:
334,223,3285,6,0,B|282:207|234:223|234:223|204:232|176:223,1,160,4|0,0:0|0:0,0:0:0:0:
125,168,3714,2,0,B|144:147|173:141|198:151,1,80,8|0,0:0|0:0,0:0:0:0:
98,241,4000,2,0,B|70:235|50:212|46:186,1,80,0|0,0:0|0:0,0:0:0:0:
176,224,4285,2,0,L|208:312,1,80,8|0,0:0|0:0,0:0:0:0:
272,340,4571,5,0,0:0:0:0:
272,340,4714,1,0,0:0:0:0:
313,210,4857,2,0,L|345:122,1,80,8|0,0:0|0:0,0:0:0:0:
316,59,5142,1,0,0:0:0:0:
316,59,5285,1,0,0:0:0:0:
419,124,5428,1,8,0:0:0:0:
260,136,5571,6,0,B|220:152|184:136|184:136|148:120|104:136,1,160,4|0,0:0|0:0,0:0:0:0:
68,208,6000,2,0,B|63:256|63:256|79:306,1,80,8|0,0:0|0:0,0:0:0:0:
128,348,6285,2,0,L|224:336,2,80,0|0|8,0:0|0:0|0:0,0:0:0:0:
236,248,6714,1,0,0:0:0:0:
236,248,6857,6,0,L|156:257,2,80,0|0|8,0:0|0:0|0:0,0:0:0:0:
292,308,7285,1,0,0:0:0:0:
372,324,7428,2,0,L|360:228,1,80,0|0,0:0|0:0,0:0:0:0:
312,68,7714,1,8,0:0:0:0:
278,142,7857,6,0,B|327:171|384:169|429:143,1,160,4|0,0:0|0:0,0:0:0:0:
485,84,8285,2,0,B|466:63|436:57|411:67,1,80,8|0,0:0|0:0,0:0:0:0:
431,143,8571,2,0,L|421:222,1,80,0|0,0:0|0:0,0:0:0:0:
346,191,8857,2,0,L|335:275,1,80,8|0,0:0|0:0,0:0:0:0:
288,335,9142,5,0,0:0:0:0:
288,335,9285,1,0,0:0:0:0:
185,316,9428,1,8,0:0:0:0:
254,238,9571,1,0,0:0:0:0:
82,296,9714,1,8,0:0:0:0:
151,218,9857,1,0,0:0:0:0:
185,316,10000,1,8,0:0:0:0:
81,295,10142,6,0,B|38:255|37:187|77:147,1,160,4|0,0:0|0:0,0:0:0:0:
127,89,10571,2,0,B|94:68|94:68|53:70,1,80,8|0,0:0|0:0,0:0:0:0:
152,165,10857,2,0,L|242:174,1,80,0|0,0:0|0:0,0:0:0:0:
309,192,11142,2,0,L|318:102,1,80,8|0,0:0|0:0,0:0:0:0:
363,45,11428,5,0,0:0:0:0:
363,45,11571,1,0,0:0:0:0:
234,90,11714,2,0,L|154:97,1,80,8|0,0:0|0:0,0:0:0:0:
87,143,12000,1,0,0:0:0:0:
87,143,12142,1,0,0:0:0:0:
41,32,12285,1,8,0:0:0:0:
15,190,12428,6,0,B|18:244|50:283|50:283|53:312|71:337,1,160,4|0,0:0|0:0,0:0:0:0:
151,337,12857,2,0,B|173:308|177:271|166:239,1,80,8|0,0:0|0:0,0:0:0:0:
223,200,13142,2,0,B|203:180|175:174|150:183,1,80,0|0,0:0|0:0,0:0:0:0:
24,127,13428,2,0,L|104:117,1,80,8|0,0:0|0:0,0:0:0:0:
160,61,13714,5,0,0:0:0:0:
160,61,13857,1,0,0:0:0:0:
226,179,14000,2,0,L|306:189,1,80,8|0,0:0|0:0,0:0:0:0:
378,155,14285,1,0,0:0:0:0:
378,155,14428,1,0,0:0:0:0:
273,96,14571,1,8,0:0:0:0:
143,190,14714,6,0,B|131:238|131:238|176:346,1,160,4|0,0:0|0:0,0:0:0:0:
254,338,15142,2,0,L|223:263,1,80,8|0,0:0|0:0,0:0:0:0:
255,190,15428,2,0,B|305:178|354:190,2,80,0|0|8,0:0|0:0|0:0,0:0:0:0:
139,110,15857,1,0,0:0:0:0:
139,110,16000,6,0,B|133:150|142:189,2,80,0|0|8,0:0|0:0|0:0,0:0:0:0:
194,52,16428,1,0,0:0:0:0:
252,105,16571,2,0,L|340:88,1,80,0|0,0:0|0:0,0:0:0:0:
374,22,16857,1,8,0:0:0:0:
478,144,17000,6,0,L|306:177,1,160,4|0,0:0|0:0,0:0:0:0:
243,190,17428,2,0,B|262:229|262:229|317:254,1,80,8|0,0:0|0:0,0:0:0:0:
313,322,17714,2,0,B|352:303|352:303|377:248,1,80,0|0,0:0|0:0,0:0:0:0:
445,252,18000,2,0,B|426:213|426:213|371:188,1,80,8|0,0:0|0:0,0:0:0:0:
375,120,18285,6,0,B|336:139|336:139|311:194,1,80,0|4,0:0|0:3,0:0:0:0:
309,202,18500,1,0,0:0:0:0:
296,231,18571,2,0,L|202:223,1,80,8|8,0:3|0:3,0:0:0:0:
138,241,18857,2,0,L|44:233,2,80,4|4|4,0:3|0:3|0:3,0:0:0:0:
216,224,19285,1,4,0:0:0:0:
256,192,19357,12,8,23428,0:0:0:0:
339,271,23714,5,4,0:3:0:0:
339,271,23857,6,0,B|352:221|352:221|339:111,1,160,4|0,0:0|0:0,0:0:0:0:
361,38,24285,2,0,B|334:27|305:35|287:55,1,80,8|0,0:0|0:0,0:0:0:0:
232,116,24571,2,0,B|221:143|196:158|169:159,1,80,0|0,0:0|0:0,0:0:0:0:
89,178,24857,1,8,0:0:0:0:
10,162,25000,6,0,B|66:167|108:214|109:267,1,160,0|0,0:0|0:0,0:0:0:0:
92,348,25428,2,0,B|118:358|147:349|163:328,1,80,8|0,0:0|0:0,0:0:0:0:
220,273,25714,2,0,B|237:249|267:242|291:253,1,80,0|0,0:0|0:0,0:0:0:0:
274,331,26000,1,8,0:0:0:0:
167,211,26142,6,0,B|211:168|274:159|326:183,1,160,0|0,0:0|0:0,0:0:0:0:
440,220,26571,2,0,B|401:261|343:272|294:254,2,160,8|0|8,0:0|0:0|0:0,0:0:0:0:
315,178,27285,6,0,B|266:163|215:193|202:246|222:287,1,160,,,0:0:0:0:
293,334,27714,2,0,L|293:254,1,80,8|0,0:0|0:0,0:0:0:0:
315,178,28000,1,0,0:0:0:0:
271,111,28142,1,0,0:0:0:0:
315,44,28285,1,8,0:0:0:0:
314,178,28428,6,0,B|277:203|227:196|196:161|192:122,1,160,0|0,0:0|0:0,0:0:0:0:
271,111,28857,2,0,B|300:93|335:96|361:115,1,80,8|0,0:0|0:0,0:0:0:0:
469,166,29142,2,0,B|445:181|416:182|392:170,1,80,0|0,0:0|0:0,0:0:0:0:
427,98,29428,1,8,0:0:0:0:
469,166,29571,6,0,B|485:218|469:266|469:266|476:296|469:326,1,160,0|0,0:0|0:0,0:0:0:0:
402,371,30000,2,0,B|385:348|384:319|394:295,1,80,8|0,0:0|0:0,0:0:0:0:
469,166,30285,2,0,L|377:188,1,80,0|0,0:0|0:0,0:0:0:0:
312,204,30571,1,8,0:0:0:0:
234,219,30714,6,0,L|148:204,1,80,,,0:0:0:0:
87,247,31000,2,0,B|73:223|73:195|83:171,1,80,0|8,0:0|0:0,0:0:0:0:
128,316,31285,2,0,B|104:331|75:332|51:320,1,80,0|0,0:0|0:0,0:0:0:0:
204,348,31571,2,0,L|296:332,1,80,0|8,0:0|0:0,0:0:0:0:
360,348,31857,1,0,0:0:0:0:
234,231,32142,5,8,0:0:0:0:
234,231,32214,1,0,0:0:0:0:
234,231,32285,2,0,L|310:253,1,80,8|8,0:0|0:0,0:0:0:0:
222,144,32571,2,0,L|303:168,1,80,8|8,0:0|0:3,0:0:0:0:
376,146,32857,1,4,0:3:0:0:
343,296,33000,6,0,L|189:251,1,160,4|0,0:0|0:0,0:0:0:0:
108,272,33428,2,0,L|108:176,1,80,8|0,0:0|0:0,0:0:0:0:
188,92,33714,2,0,L|188:172,1,80,0|0,0:0|0:0,0:0:0:0:
108,112,34000,1,8,0:0:0:0:
128,36,34142,6,0,B|159:4|207:-1|245:23|261:58,1,160,0|0,0:0|0:0,0:0:0:0:
300,128,34571,2,0,B|315:152|337:168|362:177,1,80,8|0,0:0|0:0,0:0:0:0:
440,196,34857,2,0,L|460:108,1,80,0|0,0:0|0:0,0:0:0:0:
416,52,35142,1,8,0:0:0:0:
361,177,35285,6,0,B|361:217|361:217|377:289|377:289|377:335,1,160,0|0,0:0|0:0,0:0:0:0:
296,352,35714,1,8,0:0:0:0:
222,322,35857,2,0,B|178:306|142:322|142:322|106:338|66:322,1,160,0|0,0:0|0:0,0:0:0:0:
104,252,36285,1,8,0:0:0:0:
66,181,36428,1,0,0:0:0:0:
104,112,36571,6,0,B|120:60|120:60|116:16,2,80,0|0|8,0:0|0:0|0:0,0:0:0:0:
44,48,37000,1,0,0:0:0:0:
196,32,37142,2,0,B|227:33|255:45|276:64,1,80,0|0,0:0|0:0,0:0:0:0:
332,108,37428,1,0,0:0:0:0:
380,172,37571,6,0,B|392:216|392:216|384:264,1,80,0|0,0:0|0:0,0:0:0:0:
432,316,37857,2,0,B|388:328|388:328|340:320,1,80,0|8,0:0|0:0,0:0:0:0:
288,368,38142,2,0,B|276:324|276:324|284:276,1,80,0|0,0:0|0:0,0:0:0:0:
216,176,38428,2,0,B|221:209|221:209|209:253,1,80,0|8,0:0|0:0,0:0:0:0:
156,312,38714,6,0,L|64:324,1,80,0|0,0:0|0:0,0:0:0:0:
12,228,39000,2,0,L|91:238,1,80,0|8,0:0|0:0,0:0:0:0:
168,216,39285,1,0,0:0:0:0:
244,193,39428,1,0,0:0:0:0:
320,170,39571,1,0,0:0:0:0:
396,192,39714,1,8,0:0:0:0:
472,170,39857,1,0,0:0:0:0:
372,115,40000,6,0,B|345:124|326:146|320:172,1,80,0|0,0:0|0:0,0:0:0:0:
396,192,40285,1,8,0:0:0:0:
356,40,40428,2,0,B|300:50|258:91|244:141,1,160,0|0,0:0|0:0,0:0:0:0:
228,224,40857,1,8,0:0:0:0:
264,296,41000,6,0,B|312:316|312:316|356:320,2,80,4|0|0,0:0|0:0|0:0,0:0:0:0:
184,292,41428,1,8,0:0:0:0:
332,240,41571,1,0,0:0:0:0:
148,220,41714,2,0,B|122:231|106:255|103:281,1,80,0|0,0:0|0:0,0:0:0:0:
132,356,42000,1,8,0:0:0:0:
228,224,42142,6,0,L|256:64,1,160,4|0,0:0|0:0,0:0:0:0:
308,16,42571,1,8,0:0:0:0:
324,44,42857,6,0,L|412:56,1,80,8|0,0:3|0:0,0:0:0:0:
476,24,43142,1,8,0:0:0:0:
508,128,43285,2,0,B|462:165|403:173|352:156,1,160,8|0,0:3|0:0,0:0:0:0:
280,132,43714,1,8,0:0:0:0:
260,156,44000,6,0,B|268:209|268:209|260:248,1,80,8|0,0:3|0:0,0:0:0:0:
188,204,44285,1,8,0:0:0:0:
240,76,44428,2,0,B|283:65|326:88|345:129|339:167,1,160,4|0,0:0|0:0,0:0:0:0:
364,248,44857,1,8,0:0:0:0:
392,332,45000,1,0,0:0:0:0:
392,332,45071,1,0,0:0:0:0:
392,332,45142,6,0,B|416:349|446:347|468:332,1,80,0|0,0:0|0:0,0:0:0:0:
312,312,45428,2,0,B|288:295|258:297|236:312,1,80,8|0,0:0|0:0,0:0:0:0:
160,336,45714,2,0,L|112:320,3,40,8|0|0|0,0:0|0:0|0:0|0:0,0:0:0:0:
96,292,46000,5,8,0:0:0:0:
200,252,46142,1,8,0:0:0:0:
124,204,46285,1,8,0:0:0:0:
248,156,46428,1,8,0:3:0:0:
164,112,46571,1,4,0:3:0:0:
312,54,46714,6,0,B|368:90|383:165|349:219,1,176.000005371094,4|0,0:0|0:0,0:0:0:0:
304,280,47142,2,0,B|336:296|336:296|388:299,1,88.000002685547,8|0,0:0|0:0,0:0:0:0:
476,296,47428,2,0,B|468:261|468:261|436:215,2,88.000002685547,0|0|8,0:0|0:0|0:0,0:0:0:0:
388,300,47857,6,0,B|333:231|333:231|308:200|314:147,1,176.000005371094,0|0,0:0|0:0,0:0:0:0:
305,60,48285,2,0,B|337:55|366:68|384:92,1,88.000002685547,8|0,0:0|0:0,0:0:0:0:
236,112,48571,2,0,B|217:87|214:55|225:28,1,88.000002685547,0|0,0:0|0:0,0:0:0:0:
305,60,48857,1,8,0:0:0:0:
314,147,49000,6,0,B|297:194|246:218|196:204|169:170,1,176.000005371094,4|0,0:0|0:0,0:0:0:0:
152,84,49428,1,8,0:0:0:0:
236,112,49571,2,0,B|252:242|252:242|240:296,1,176.000005371094,0|0,0:0|0:0,0:0:0:0:
168,236,50000,1,8,0:0:0:0:
328,200,50142,6,0,B|387:198|426:232|426:232|467:224|496:248,1,176.000005371094,0|0,0:0|0:0,0:0:0:0:
445,321,50571,2,0,B|414:328|383:317|362:296,1,88.000002685547,8|0,0:0|0:0,0:0:0:0:
278,276,50857,2,0,B|256:252|224:244|194:250,1,88.000002685547,0|0,0:0|0:0,0:0:0:0:
40,328,51142,1,8,0:0:0:0:
124,364,51285,6,0,B|124:316|124:316|108:260|108:260|108:188,1,176.000005371094,4|0,0:0|0:0,0:0:0:0:
120,104,51714,2,0,B|88:99|59:112|41:136,1,88.000002685547,8|0,0:0|0:0,0:0:0:0:
196,216,52000,2,0,B|245:217|288:196,2,88.000002685547,0|0|8,0:0|0:0|0:0,0:0:0:0:
108,190,52428,1,0,0:0:0:0:
272,108,52571,6,0,L|368:124,2,88.000002685547,0|0|8,0:0|0:0|0:0,0:0:0:0:
212,44,53000,1,0,0:0:0:0:
440,92,53142,2,0,B|452:121|446:152|427:174,1,88.000002685547,0|0,0:0|0:0,0:0:0:0:
356,356,53428,1,8,0:0:0:0:
277,278,53571,6,0,B|329:243|393:243|443:272,1,176.000005371094,4|0,0:0|0:0,0:0:0:0:
208,336,54000,2,0,B|160:328|160:328|124:304,1,88.000002685547,8|0,0:0|0:0,0:0:0:0:
60,248,54285,2,0,B|92:226|92:226|140:218,1,88.000002685547,0|0,0:0|0:0,0:0:0:0:
286,137,54571,2,0,L|200:152,1,88.000002685547,8|0,0:0|0:0,0:0:0:0:
120,112,54857,5,0,0:0:0:0:
120,112,55000,1,0,0:0:0:0:
184,52,55142,1,8,0:0:0:0:
56,52,55285,1,0,0:0:0:0:
100,200,55428,2,0,B|130:209|161:197|178:173,1,88.000002685547,8|4,3:0|3:0,0:0:0:0:
260,80,55714,1,8,0:0:0:0:
380,48,55857,6,0,B|412:116|412:116|428:152|432:192|404:244,1,176.000005371094,4|0,0:0|0:0,0:0:0:0:
446,301,56285,2,0,B|417:313|386:307|364:288,1,88.000002685547,8|0,0:0|0:0,0:0:0:0:
292,240,56571,2,0,L|204:256,2,88.000002685547,0|0|8,0:0|0:0|0:0,0:0:0:0:
308,152,57000,6,0,B|168:180|168:180|120:220,1,176.000005371094,0|0,0:0|0:0,0:0:0:0:
60,240,57428,2,0,B|71:269|98:287|127:289,1,88.000002685547,8|0,0:0|0:0,0:0:0:0:
216,304,57714,2,0,B|212:335|192:359|166:371,1,88.000002685547,0|0,0:0|0:0,0:0:0:0:
127,289,58000,1,8,0:0:0:0:
184,219,58142,6,0,B|232:200|287:221|311:269|304:314,1,176.000005371094,4|0,0:0|0:0,0:0:0:0:
216,304,58571,1,8,0:0:0:0:
322,165,58714,2,0,B|271:126|207:120|153:140,1,176.000005371094,0|0,0:0|0:0,0:0:0:0:
96,204,59142,1,8,0:0:0:0:
216,304,59285,6,0,B|241:325|282:317|282:317|321:351|380:349,1,176.000005371094,0|0,0:0|0:0,0:0:0:0:
468,336,59714,2,0,L|480:240,1,88.000002685547,8|0,0:0|0:0,0:0:0:0:
428,176,60000,2,0,L|440:80,1,88.000002685547,0|0,0:0|0:0,0:0:0:0:
488,16,60285,1,8,0:0:0:0:
360,44,60428,6,0,L|337:223,1,176.000005371094,4|0,0:0|0:0,0:0:0:0:
328,308,60857,2,0,B|296:306|271:285|260:258,1,88.000002685547,8|0,0:0|0:0,0:0:0:0:
232,176,61142,2,0,B|224:144|224:144|233:89,2,88.000002685547,0|0|8,0:0|0:0|0:0,0:0:0:0:
296,28,61571,1,0,0:0:0:0:
144,88,61714,6,0,B|111:99|77:98|47:88,2,88.000002685547,0|0|8,0:0|0:0|0:0,0:0:0:0:
296,28,62142,1,0,0:0:0:0:
412,160,62285,2,0,B|423:189|422:220|413:247,1,88.000002685547,,,0:0:0:0:
348,308,62571,1,0,0:0:0:0:
340,108,62714,6,0,B|369:65|427:53|473:80|492:121,1,176.000005371094,4|0,0:0|0:0,0:0:0:0:
336,196,63142,2,0,B|285:215|232:208,1,88.000002685547,8|0,0:0|0:0,0:0:0:0:
164,188,63428,2,0,B|119:185|77:201,1,88.000002685547,0|0,0:0|0:0,0:0:0:0:
32,280,63714,2,0,B|58:297|90:297|115:282,1,88.000002685547,8|0,0:0|0:0,0:0:0:0:
164,188,64000,5,0,0:0:0:0:
228,288,64142,2,0,L|232:332,2,44.0000013427735,8|0|8,0:0|0:0|0:0,0:0:0:0:
284,188,64428,1,8,0:0:0:0:
340,288,64571,1,8,0:0:0:0:
396,188,64714,1,8,0:3:0:0:
452,288,64857,1,4,0:3:0:0:
340,288,65000,1,4,0:3:0:0:
340,100,65142,5,4,0:0:0:0:
340,100,65570,5,0,0:0:0:0:
204,48,65713,1,8,0:0:0:0:
292,20,65999,5,0,0:0:0:0:
292,208,66284,1,0,0:0:0:0:
292,208,66836,1,8,0:0:0:0:
292,208,67389,6,0,L|156:220,2,128,0|0|8,0:0|0:0|0:0,0:0:0:0:
388,120,68226,1,0,0:0:0:0:
464,228,68505,2,0,L|440:364,1,128,,,0:0:0:0:
388,120,69055,2,0,L|364:256,1,128,8|8,0:0|0:3,0:0:0:0:
312,12,69610,5,4,0:0:0:0:
312,12,70019,5,0,0:0:0:0:
240,136,70155,1,8,0:0:0:0:
332,108,70438,5,0,0:0:0:0:
164,52,70721,1,0,0:0:0:0:
164,52,71279,1,8,0:0:0:0:
164,52,71837,6,0,B|125:90|119:147|143:191,2,128,0|0|8,0:0|0:0|0:0,0:0:0:0:
260,140,72665,1,0,0:0:0:0:
224,264,72941,2,0,L|352:300,1,128,,,0:0:0:0:
504,152,73494,2,0,L|380:186,1,128,8|8,0:0|0:0,0:0:0:0:
260,140,74046,5,4,0:0:0:0:
260,140,74460,5,0,0:0:0:0:
332,16,74598,1,8,0:0:0:0:
240,48,74879,5,0,0:0:0:0:
404,136,75161,1,0,0:0:0:0:
404,136,75706,1,8,0:0:0:0:
404,136,76258,6,0,B|396:176|396:176|400:224|400:224|384:284,2,128,0|0|8,0:0|0:0|0:0,0:0:0:0:
480,32,77085,1,0,0:0:0:0:
352,48,77361,2,0,B|310:73|293:124|308:167,1,128,,,0:0:0:0:
404,240,77913,2,0,B|377:281|328:297|285:284,1,128,8|8,0:0|0:3,0:0:0:0:
184,220,78473,5,4,0:0:0:0:
184,220,78897,5,0,0:0:0:0:
60,292,79039,1,8,0:0:0:0:
92,200,79314,5,0,0:0:0:0:
232,316,79589,1,0,0:0:0:0:
232,316,80144,1,8,0:0:0:0:
232,316,80700,6,0,B|270:286|316:274|360:280,2,128,0|0|8,0:0|0:0|0:0,0:0:0:0:
372,376,81525,1,0,0:0:0:0:
452,288,81800,2,0,B|469:237|468:185|452:139,1,128,,,0:0:0:0:
340,64,82351,2,0,B|325:107|324:152|334:193,1,128,8|8,0:0|0:0,0:0:0:0:
452,288,82901,5,2,0:0:0:0:
116,264,91784,6,0,L|104:176,1,71.9999978027344,6|0,0:0|0:0,0:0:0:0:
176,120,92057,2,0,L|185:191,1,71.9999978027344,,,0:0:0:0:
272,236,92331,2,0,L|260:152,1,71.9999978027344,8|0,0:0|0:0,0:0:0:0:
332,92,92610,2,0,L|341:163,1,71.9999978027344,,,0:0:0:0:
412,212,92889,6,0,L|488:220,2,71.9999978027344,2|0|0,0:0|0:0|0:0,0:0:0:0:
341,163,93304,1,0,0:0:0:0:
288,272,93443,2,0,L|212:280,2,71.9999978027344,8|0|0,0:0|0:0|0:0,0:0:0:0:
360,324,93858,1,0,0:0:0:0:
412,212,93997,6,0,L|424:124,1,71.9999978027344,2|0,0:0|0:0,0:0:0:0:
352,68,94274,2,0,L|342:139,1,71.9999978027344,,,0:0:0:0:
256,184,94551,2,0,L|268:100,1,71.9999978027344,8|0,0:0|0:0,0:0:0:0:
196,40,94828,2,0,L|186:111,1,71.9999978027344,,,0:0:0:0:
128,176,95105,6,0,L|118:247,1,71.9999978027344,2|0,0:0|0:0,0:0:0:0:
56,308,95382,1,0,0:0:0:0:
56,308,95520,1,0,0:0:0:0:
168,344,95659,2,0,L|239:334,1,71.9999978027344,8|0,0:0|0:0,0:0:0:0:
300,272,95936,1,0,0:3:0:0:
300,272,96074,1,0,0:3:0:0:
396,340,96213,6,0,L|406:269,1,71.9999978027344,2|0,0:0|0:0,0:0:0:0:
472,192,96488,2,0,L|401:182,1,71.9999978027344,,,0:0:0:0:
324,140,96763,2,0,L|253:150,1,71.9999978027344,8|0,0:0|0:0,0:0:0:0:
176,216,97038,2,0,L|166:145,1,71.9999978027344,,,0:0:0:0:
124,71,97313,6,0,B|145:57|171:57|192:66,2,71.9999978027344,2|0|0,0:0|0:0|0:0,0:0:0:0:
166,145,97726,1,0,0:0:0:0:
276,92,97864,2,0,B|287:69|283:43|270:23,2,71.9999978027344,8|0|0,0:0|0:0|0:0,0:0:0:0:
248,176,98277,1,0,0:0:0:0:
220,256,98414,6,0,L|240:352,1,71.9999978027344,2|0,0:0|0:0,0:0:0:0:
308,352,98692,2,0,L|404:332,1,71.9999978027344,,,0:0:0:0:
394,253,98970,2,0,L|324:268,1,71.9999978027344,8|0,0:0|0:0,0:0:0:0:
478,358,99249,2,0,L|464:288,1,71.9999978027344,,,0:0:0:0:
464,208,99527,6,0,L|444:112,1,71.9999978027344,2|0,0:0|0:0,0:0:0:0:
284,124,99806,2,0,L|298:194,1,71.9999978027344,,,0:0:0:0:
372,144,100084,2,0,L|352:48,1,71.9999978027344,8|0,0:0|0:0,0:0:0:0:
268,44,100362,2,0,L|172:64,1,71.9999978027344,,,0:0:0:0:
88,64,100641,6,0,L|110:178,1,80,8|0,0:0|0:0,0:0:0:0:
84,236,100922,2,0,L|106:350,1,80,8|0,0:0|0:0,0:0:0:0:
196,348,101203,2,0,L|218:234,1,80,8|0,0:0|0:0,0:0:0:0:
192,176,101484,2,0,L|214:62,1,80,8|0,0:0|0:0,0:0:0:0:
292,56,101765,6,0,L|376:40,1,80,8|0,0:0|0:0,0:0:0:0:
444,8,102050,1,8,0:0:0:0:
444,8,102193,1,0,0:0:0:0:
360,136,102336,2,0,L|444:149,1,80,8|0,0:0|0:0,0:0:0:0:
512,112,102622,1,0,0:0:0:0:
512,112,102765,1,0,0:0:0:0:
465,272,102907,6,0,L|396:234,1,80,8|0,0:0|0:0,0:0:0:0:
384,328,103193,2,0,L|314:288,1,80,8|0,0:0|0:0,0:0:0:0:
220,240,103479,2,0,L|290:201,1,80,8|0,0:0|0:0,0:0:0:0:
138,185,103765,2,0,L|207:145,1,80,8|0,0:0|0:0,0:0:0:0:
244,56,104050,5,8,0:0:0:0:
204,100,105050,6,0,B|229:121|270:113|270:113|309:147|368:145,1,176.000005371094,4|0,0:0|0:0,0:0:0:0:
452,188,105479,2,0,B|467:160|465:129|449:104,1,88.000002685547,8|0,0:0|0:0,0:0:0:0:
380,236,105765,2,0,B|395:263|424:277|453:275,2,88.000002685547,0|0|8,0:0|0:0|0:0,0:0:0:0:
296,256,106193,6,0,B|312:316|366:355|424:356,1,176.000005371094,0|0,0:0|0:0,0:0:0:0:
308,168,106622,2,0,B|277:161|247:173|229:196,1,88.000002685547,8|0,0:0|0:0,0:0:0:0:
180,272,106907,2,0,B|144:236|144:236|144:180,1,88.000002685547,0|0,0:0|0:0,0:0:0:0:
144,112,107193,1,8,0:0:0:0:
60,248,107336,6,0,L|60:72,1,176.000005371094,4|0,0:0|0:0,0:0:0:0:
232,148,107765,1,8,0:0:0:0:
248,232,107907,2,0,B|199:243|151:213|135:163|149:122,1,176.000005371094,0|0,0:0|0:0,0:0:0:0:
220,36,108336,1,8,0:0:0:0:
333,44,108479,6,0,B|346:91|321:139|275:157|234:148,1,176.000005371094,0|0,0:0|0:0,0:0:0:0:
144,132,108907,2,0,L|52:148,1,88.000002685547,8|0,0:0|0:0,0:0:0:0:
8,220,109193,2,0,L|100:236,1,88.000002685547,0|0,0:0|0:0,0:0:0:0:
180,248,109479,1,8,0:0:0:0:
268,264,109622,6,0,L|441:236,1,176.000005371094,4|0,0:0|0:0,0:0:0:0:
508,176,110050,2,0,B|489:151|458:141|430:148,1,88.000002685547,8|0,0:0|0:0,0:0:0:0:
368,84,110336,2,0,B|343:103|333:134|340:161,1,88.000002685547,0|0,0:0|0:0,0:0:0:0:
376,244,110622,2,0,B|400:264|409:295|403:323,1,88.000002685547,8|0,0:0|0:0,0:0:0:0:
228,319,110907,6,0,L|316:308,2,88.000002685547,0|0|8,0:0|0:0|0:0,0:0:0:0:
192,184,111336,1,0,0:0:0:0:
84,272,111479,2,0,L|96:372,2,88.000002685547,0|0|8,0:0|0:0|0:0,0:0:0:0:
50,66,111907,6,0,B|93:111|158:122|211:100,1,176.000005371094,4|0,0:0|0:0,0:0:0:0:
290,57,112336,2,0,B|304:80|304:80|292:140,1,88.000002685547,8|0,0:0|0:0,0:0:0:0:
264,224,112622,2,0,L|288:320,1,88.000002685547,0|0,0:0|0:0,0:0:0:0:
388,340,112907,2,0,L|366:254,1,88.000002685547,8|0,0:0|0:0,0:0:0:0:
404,176,113193,5,0,0:0:0:0:
404,176,113336,1,0,0:0:0:0:
480,220,113479,1,8,0:0:0:0:
440,56,113622,1,0,0:0:0:0:
404,176,113765,2,0,L|312:160,1,88.000002685547,8|4,0:3|0:3,0:0:0:0:
168,68,114050,1,8,0:0:0:0:
256,72,114193,6,0,B|259:105|230:135|230:135|238:186|204:234,1,176.000005371094,4|0,0:0|0:0,0:0:0:0:
152,304,114622,2,0,B|176:324|207:328|234:317,1,88.000002685547,8|0,0:0|0:0,0:0:0:0:
320,296,114907,2,0,B|336:269|365:256|394:258,2,88.000002685547,0|0|8,0:0|0:0|0:0,0:0:0:0:
392,348,115336,6,0,B|444:350|488:312|495:259|474:219,1,176.000005371094,0|0,0:0|0:0,0:0:0:0:
492,140,115765,2,0,B|432:148|432:148|396:188,1,88.000002685547,8|0,0:0|0:0,0:0:0:0:
340,220,116050,2,0,B|280:212|280:212|244:172,1,88.000002685547,0|0,0:0|0:0,0:0:0:0:
320,132,116336,1,8,0:0:0:0:
376,304,116479,6,0,B|239:287|239:287|184:240,1,176.000005371094,4|0,0:0|0:0,0:0:0:0:
92,112,116907,1,8,0:0:0:0:
60,192,117050,2,0,B|119:212|180:199|226:165,1,176.000005371094,0|0,0:0|0:0,0:0:0:0:
368,40,117479,1,8,0:0:0:0:
280,40,117622,6,0,B|278:99|312:138|312:138|304:179|325:204,1,176.000005371094,0|0,0:0|0:0,0:0:0:0:
368,280,118050,2,0,B|397:301|433:305|464:296,1,88.000002685547,8|0,0:0|0:0,0:0:0:0:
304,340,118336,2,0,B|275:319|239:315|208:324,1,88.000002685547,0|0,0:0|0:0,0:0:0:0:
52,324,118622,1,8,0:0:0:0:
136,344,118765,6,0,B|140:292|108:260|108:260|77:228|82:180,1,176.000005371094,4|0,0:0|0:0,0:0:0:0:
84,92,119193,2,0,L|120:12,1,88.000002685547,8|0,0:0|0:0,0:0:0:0:
192,136,119479,2,0,L|228:216,1,88.000002685547,0|0,0:0|0:0,0:0:0:0:
296,316,119765,2,0,L|332:236,1,88.000002685547,8|0,0:0|0:0,0:0:0:0:
388,168,120050,6,0,B|364:148|333:144|306:155,2,88.000002685547,0|0|8,0:0|0:0|0:0,0:0:0:0:
332,235,120479,1,0,0:0:0:0:
224,160,120622,2,0,B|224:128|224:128|260:76,1,88.000002685547,0|0,0:0|0:0,0:0:0:0:
308,12,120907,1,8,0:0:0:0:
472,144,121050,6,0,B|486:194|459:245|410:264|366:253,1,176.000005371094,4|0,0:0|0:0,0:0:0:0:
288,240,121479,1,8,0:0:0:0:
200,256,121622,1,0,0:0:0:0:
168,336,121765,2,0,B|196:349|227:344|250:327,1,88.000002685547,0|0,0:0|0:0,0:0:0:0:
340,168,122050,2,0,B|315:148|283:146|256:158,1,88.000002685547,8|0,0:0|0:0,0:0:0:0:
288,240,122336,6,0,L|360:304,1,88.000002685547,0|0,0:0|0:0,0:0:0:0:
440,308,122622,1,8,0:0:0:0:
440,308,122765,1,0,0:0:0:0:
484,168,122907,1,8,0:0:0:0:
416,224,123050,1,0,0:0:0:0:
428,100,123193,1,0,0:0:0:0:
359,155,123336,6,0,B|255:143|255:143|191:99,1,160,4|0,0:0|0:0,0:0:0:0:
224,16,123765,2,0,L|298:69,1,80,8|0,0:0|0:0,0:0:0:0:
336,236,124050,2,0,L|252:228,1,80,0|0,0:0|0:0,0:0:0:0:
180,252,124336,2,0,B|186:280|208:299|233:303,1,80,8|0,0:0|0:0,0:0:0:0:
312,324,124622,6,0,L|396:316,2,80,0|0|8,0:0|0:0|0:0,0:0:0:0:
234,303,125050,1,0,0:0:0:0:
156,324,125193,2,0,L|72:316,2,80,0|0|8,0:0|0:0|0:0,0:0:0:0:
234,303,125622,6,0,L|284:140,1,160,4|0,0:0|0:0,0:0:0:0:
356,124,126050,2,0,B|350:96|328:77|303:73,1,80,8|0,0:0|0:0,0:0:0:0:
276,0,126336,2,0,B|248:6|229:28|225:53,1,80,0|0,0:0|0:0,0:0:0:0:
320,196,126622,2,0,B|344:211|373:209|395:193,1,80,8|0,0:0|0:0,0:0:0:0:
460,148,126907,6,0,B|476:192|476:192|465:223,2,80,0|0|8,0:0|0:0|0:0,0:0:0:0:
428,76,127336,1,0,0:0:0:0:
395,193,127479,2,0,B|379:237|379:237|395:285,2,80,0|0|8,0:0|0:0|0:0,0:0:0:0:
456,312,127907,6,0,B|426:358|361:367|315:327|308:278,1,160,4|0,0:0|0:0,0:0:0:0:
248,280,128336,2,0,B|276:242|276:242|322:227,1,80,8|0,0:0|0:0,0:0:0:0:
338,136,128622,2,0,L|235:171,1,80,0|0,0:0|0:0,0:0:0:0:
184,185,128907,2,0,B|154:194|123:187|100:171,1,80,8|0,0:0|0:0,0:0:0:0:
56,112,129193,5,0,0:0:0:0:
56,112,129336,1,0,0:0:0:0:
40,232,129479,2,0,L|40:316,1,80,8|0,0:0|0:0,0:0:0:0:
100,364,129765,1,0,0:0:0:0:
100,364,129907,1,0,0:0:0:0:
279,294,130050,1,8,0:0:0:0:
232,356,130193,6,0,B|208:341|197:312|203:287,1,80,4|0,0:0|0:0,0:0:0:0:
248,220,130479,1,0,0:0:0:0:
296,156,130622,2,0,B|320:171|330:199|324:224,1,80,8|0,0:0|0:0,0:0:0:0:
220,148,130907,2,0,L|200:60,1,80,0|0,0:0|0:0,0:0:0:0:
136,12,131193,2,0,L|118:90,1,80,8|0,0:0|0:0,0:0:0:0:
100,168,131479,5,0,0:0:0:0:
84,248,131622,1,0,0:0:0:0:
160,220,131765,1,8,0:0:0:0:
144,300,131907,1,0,0:0:0:0:
220,271,132050,2,0,B|247:259|276:261|300:272,1,80,8|0,0:0|0:0,0:0:0:0:
444,316,132336,1,8,0:0:0:0:
372,360,132479,6,0,B|360:312|360:312|405:204,1,160,4|0,0:0|0:0,0:0:0:0:
436,136,132907,1,0,0:0:0:0:
436,136,133193,6,0,B|395:117|347:131|320:168|318:208,1,160,8|0,0:0|0:0,0:0:0:0:
402,209,133622,1,0,0:0:0:0:
472,60,133765,2,0,B|417:38|359:45|312:72,1,160,0|0,0:0|0:0,0:0:0:0:
260,124,134193,1,0,0:0:0:0:
204,180,134336,2,0,B|149:202|91:195|44:168,1,160,8|0,0:0|0:0,0:0:0:0:
40,92,134765,6,0,B|85:87|126:115|139:158|128:196,1,160,4|0,0:0|0:0,0:0:0:0:
116,272,135193,1,0,0:0:0:0:
116,272,135479,6,0,L|284:304,1,160,8|0,0:0|0:0,0:0:0:0:
448,288,135907,1,0,0:0:0:0:
384,344,136050,2,0,L|311:189,1,160,0|0,0:0|0:0,0:0:0:0:
284,128,136479,1,0,0:0:0:0:
252,56,136622,5,8,0:0:0:0:
332,64,136765,1,8,0:0:0:0:
284,128,136907,1,8,0:0:0:0:
252,56,137050,6,0,B|225:68|208:94|208:94|183:138|134:161,1,160,4|0,0:0|0:0,0:0:0:0:
60,128,137479,1,0,0:0:0:0:
59,128,137765,6,0,B|45:183|58:238|90:279,1,160,8|0,0:0|0:0,0:0:0:0:
148,336,138193,1,0,0:0:0:0:
208,280,138336,2,0,B|242:234|250:178|238:128,1,160,0|0,0:0|0:0,0:0:0:0:
216,52,138765,1,0,0:0:0:0:
324,144,138907,2,0,B|360:171|409:167|442:136|452:98,1,160,8|0,0:0|0:0,0:0:0:0:
376,80,139336,6,0,L|412:248,1,160,4|0,0:0|0:0,0:0:0:0:
428,316,139765,1,0,0:0:0:0:
428,316,140050,6,0,L|332:328,1,80,8|0,0:0|0:0,0:0:0:0:
268,292,140336,2,0,L|172:304,1,80,0|0,0:0|0:0,0:0:0:0:
116,336,140622,5,8,0:0:0:0:
116,336,140693,1,8,0:0:0:0:
116,336,140765,1,8,0:0:0:0:
52,224,140907,1,8,0:0:0:0:
116,116,141050,1,8,0:0:0:0:
244,104,141193,2,0,B|280:114|308:135|326:164,1,80,8|8,0:0|0:0,0:0:0:0:
345,268,141479,1,4,0:0:0:0:
221,234,141622,5,4,0:0:0:0:
256,192,141693,12,0,146336,0:0:0:0:
